investorinvitation.com - The Largest Bittorent System Login   |    Register
Latest Articles
Most searched
Hot torrents
Movie Torrents
View Torrent Info: A Star Is Born (2018) [720p] [YTS] [YIFY]
View Torrent Info: Hunter Killer (2018) [720p] [YTS] [YIFY]
View Torrent Info: The Girl in the Spider's Web (2018) [720p] [YTS] [YIFY]
View Torrent Info: The Nutcracker and the Four Realms (2018) [720p] [YTS] [YIFY]
View Torrent Info: Hunter Killer (2018) [720p] [YTS] [YIFY]
View Torrent Info: Close (2019) [720p] [YTS] [YIFY]
View Torrent Info: IO (2019) [720p] [YTS] [YIFY]
View Torrent Info: Cinderella and the Secret Prince (2018) [720p] [YTS] [YIFY]
View Torrent Info: The Last Man (2018) [720p] [YTS] [YIFY]
View Torrent Info: The Legend of Secret Pass (2019) [720p] [YTS] [YIFY]
Hot torrents
TV Torrents
View Torrent Info: The.Big.Bang.Theory.S12E13.HDTV.x264-KILLERS[eztv]
View Torrent Info: The.Flash.2014.S05E10.HDTV.x264-SVA[eztv]
View Torrent Info: Supergirl.S04E10.HDTV.x264-SVA[eztv]
View Torrent Info: The.Blacklist.S06E04.HDTV.x264-BATV[eztv]
View Torrent Info: lethal.weapon.s03e12.web.x264-tbs[eztv]
View Torrent Info: True.Detective.S03E03.HDTV.x264-TURBO[eztv]
View Torrent Info: Supernatural.S14E10.HDTV.x264-SVA[eztv]
View Torrent Info: Greys.Anatomy.S15E09.HDTV.x264-KILLERS[eztv]
View Torrent Info: Vikings.S05E18.HDTV.x264-SVA[eztv]
View Torrent Info: gotham.s05e03.web.x264-tbs[eztv]
investorinvitation.com > Categories > TV torrents > Falling Skies torrents


Browse TV torrents

Falling.Skies.S05E06.HDTV.480p.x264.AAC-VYTO [P2PDL] torrent



Download torrent: Magnet link Bookmark Torrent: Falling.Skies.S05E06.HDTV.480p.x264.AAC-VYTO [P2PDL] Download Falling.Skies.S05E06.HDTV.480p.x264.AAC-VYTO [P2PDL] torrent (magnet link)
Info hash: DC6D0CCA2FF654A5BACD6EF7AD16329EE44DD73C
Category: Categories > TV torrents > Falling Skies torrents
Trackers:
17    View all torrent trackers >
Health:
 seeds: 0 ,  leechers: 1 |  Update >
Torrent language:  
Total Size: 146.76 MB
Torrent status: Added by trusted uploader Added by trusted uploader Trusted Uploader Site Friend Superman Sun
Uploader: Trusted Uploader Site Friend Superman Sun
 

Download Falling.Skies.S05E06.HDTV.480p.x264.AAC-VYTO [P2PDL] via Magnet Link




Torrent Description




Falling.Skies.S05E06.HDTV.480p.x264.AAC-VYTO



Quote:

General
Format : MPEG-4
File size : 141 MiB
Duration : 41mn 56s
Overall bit rate : 470 Kbps

Video
Format : AVC
Bit rate : 435 Kbps
Width : 720 pixels
Height : 400 pixels
Display aspect ratio : 16:9
Frame rate mode : Constant
Frame rate : 23.976 fps
Bit depth : 8 bits
Stream size : 131 MiB (93%)
Writing library : x264 core 146 r2538 121396c

Audio
Format : AAC
Bit rate mode : Variable
Bit rate : 32.0 Kbps
Channel(s) : 2 channel
Channel positions : Front: L R
Sampling rate : 48.0 KHz
Compression mode : Lossy
Stream size : 9.60 MiB (7%)











-------------------------------------------------------------------------------------


Quote:

Encoder Notes: Looking For Early Access To Anything You Can Provide DVDScr, R5, DVDR, BluRay, Direct
Audio, Music Releases and Seedboxes.

Support us by donating BC - 1FgwdzPsd1y25Gea8wP1qni35uGCtmkRCD












#VYTO -> To avoid fakes, ALWAYS check that the torrent was added on investorinvitation.com by VYTO

http://investorinvitation.com/




Comments (please add your comment)
No comments



Home - Browse Torrents - Upload Torrent - Stat - Forum - FAQ - Login
investorinvitation.com is in compliance with copyrights
2006-2018 investorinvitation.com
Policiaco | „Titans“: Batmans Robin ist jetzt „böse“ – und das ist gut so Kommende Netflix-Serie bringt DC Comics in dunklere Gefilde (29.10.2018) | The walking dead 7x16 2016