investorinvitation.com - The Largest Bittorent System Login   |    Register
Latest Articles
Most searched
Hot torrents
Movie Torrents
View Torrent Info: Bohemian Rhapsody (2018) [720p] [YTS] [YIFY]
View Torrent Info: The Grinch (2018) [720p] [YTS] [YIFY]
View Torrent Info: Widows (2018) [720p] [YTS] [YIFY]
View Torrent Info: The Girl in the Spider's Web (2018) [720p] [YTS] [YIFY]
View Torrent Info: The Nutcracker and the Four Realms (2018) [720p] [YTS] [YIFY]
View Torrent Info: Close (2019) [720p] [YTS] [YIFY]
View Torrent Info: IO (2019) [720p] [YTS] [YIFY]
View Torrent Info: Gosnell: The Trial of America's Biggest Serial Killer (2018) [720p] [YTS] [YIFY]
View Torrent Info: Cinderella and the Secret Prince (2018) [720p] [YTS] [YIFY]
View Torrent Info: Detective Dee: The Four Heavenly Kings (2018) [720p] [YTS] [YIFY]
Hot torrents
TV Torrents
View Torrent Info: The.Big.Bang.Theory.S12E13.HDTV.x264-KILLERS[eztv]
View Torrent Info: Arrow.S07E10.HDTV.x264-SVA[eztv]
View Torrent Info: Supergirl.S04E10.HDTV.x264-SVA[eztv]
View Torrent Info: The.Blacklist.S06E04.HDTV.x264-BATV[eztv]
View Torrent Info: The.Flash.2014.S05E11.HDTV.x264-SVA[eztv]
View Torrent Info: The.Good.Doctor.S02E12.HDTV.x264-KILLERS[eztv]
View Torrent Info: Supernatural.S14E10.HDTV.x264-SVA[eztv]
View Torrent Info: Greys.Anatomy.S15E09.HDTV.x264-KILLERS[eztv]
View Torrent Info: Vikings.S05E18.HDTV.x264-SVA[eztv]
View Torrent Info: True.Detective.S03E03.HDTV.x264-TURBO[eztv]
investorinvitation.com > Categories > TV torrents > Falling Skies torrents


Browse TV torrents

Falling.Skies.S05E09.HDTV.480p.x264.AAC-VYTO [P2PDL] torrent



Download torrent: Magnet link Bookmark Torrent: Falling.Skies.S05E09.HDTV.480p.x264.AAC-VYTO [P2PDL] Download Falling.Skies.S05E09.HDTV.480p.x264.AAC-VYTO [P2PDL] torrent (magnet link)
Info hash: CCCF86AE9366EA6880E077AFBD8D16C07ABF3DD7
Category: Categories > TV torrents > Falling Skies torrents
Trackers:
17    View all torrent trackers >
Health:
 seeds: 0 ,  leechers: 0 |  Update >
Total Size: 146.36 MB
Torrent status: Added by trusted uploader Added by trusted uploader Trusted Uploader Site Friend Superman Sun
Uploader: Trusted Uploader Site Friend Superman Sun
 

Download Falling.Skies.S05E09.HDTV.480p.x264.AAC-VYTO [P2PDL] via Magnet Link




Torrent Description




Falling.Skies.S05E09.HDTV.480p.x264.AAC-VYTO


Quote:

General
Format : MPEG-4
File size : 140 MiB
Duration : 42mn 19s
Overall bit rate : 464 Kbps

Video
Format : AVC
Bit rate : 429 Kbps
Width : 720 pixels
Height : 400 pixels
Display aspect ratio : 16:9
Frame rate mode : Constant
Frame rate : 23.976 fps
Bit depth : 8 bits
Stream size : 130 MiB (92%)
Writing library : x264 core 148 r2597 e86f3a1

Audio
Format : AAC
Bit rate mode : Variable
Bit rate : 32.0 Kbps
Channel(s) : 2 channels
Channel positions : Front: L R
Sampling rate : 48.0 KHz
Stream size : 9.69 MiB (7%)



Screen Shots: (click on image to see full size)









-------------------------------------------------------------------------------------


Quote:

Encoder Notes: Looking For Early Access To Anything You Can Provide DVDScr, R5, DVDR, BluRay, Direct
Audio, Music Releases and Seedboxes.

Support us by donating BC - 1FgwdzPsd1y25Gea8wP1qni35uGCtmkRCD












#VYTO -> To avoid fakes, ALWAYS check that the torrent was added on investorinvitation.com by VYTO

http://investorinvitation.com/




Comments (please add your comment)
No comments



Home - Browse Torrents - Upload Torrent - Stat - Forum - FAQ - Login
investorinvitation.com is in compliance with copyrights
2006-2018 investorinvitation.com
└ Collectibles | ├ôlafur Darri ├ôlafsson | New Arrivals